Taylor swift 1989 taylor's version deluxe. Aug 28, 2014 · SWIFT,TAYLOR - 1989 + 3 Deluxe ... 5.0 out of 5...

1989 (Taylor's Version) ( 2 × LP, Album, Special Ed

27 Oct 2023 ... PACKAGE DETAILS: 1989 (Taylor's Version) CD; 21 Songs; Including 5 previously unreleased songs from The Vault; Collectible CD album in jewel ...Listen to 1989 (Taylor's Version) [Deluxe] on Spotify. Taylor Swift · Album · 2023 · 22 songs.1989 (Taylor's Version) contains a total of 21 songs, 5 of which are previously unreleased songs from The Vault. All of the classic songs from the album have been given a Taylor makeover and are presented here in her own unique vision. 1989 features some of Taylor's biggest pop songs, including "Shake It Off", "Blank Space" and …When Taylor Swift announced that 1989 (Taylor’s Version) was finally seeing release, she mentioned that, of all the albums she’s faithfully re-recorded in her quest to retake her master tapes, this one was special. “The 1989 album changed my life in countless ways,” she wrote on Instagram.Analyzed: Taylor Swift / 1989 (Taylor's Version) (Deluxe) DR Peak RMS Duration Track DR5 -0.01 dB -6.81 dB 3:33 01-Welcome To New York (Taylor's Version)Oct 27, 2023 · Listen free to Taylor Swift – 1989 (Taylor’s Version) (Deluxe) (Welcome to New York (Taylor's Version), Blank Space (Taylor's Version) and more). 22 tracks (81:08). Discover more music, concerts, videos, and pictures with the largest catalogue online at Last.fm. In 2012, Taylor Swift wrote “The Lucky One”, a song about the dangers of fame. Lyrics like, “Another name goes up in lights. You wonder if you’ll make it out alive. And they’ll tel...1989 (Taylor's Version) is the upcoming fourth re-recorded album by American singer-songwriter Taylor Swift, set for release on October 27, 2023, via Republic Records. It is a re-recording of Swift's fifth studio album, 1989 (2014), and follows Speak Now (Taylor's Version) as her second album in 2023. It is a part of Swift's counteraction …Oct 27, 2023 · Read reviews and buy Taylor Swift - 1989 (Taylor's Version) Aquamarine Green Deluxe Poster Edition (Target Exclusive, CD) at Target. Choose from contactless Same Day Delivery, Drive Up and more. Oct 27, 2023 · Issued in a standard jewel case with a 16-page booklet with lyrics, photos and credits. Includes 1 set of 5 unique double-sided collectible photo cards with 15 never-before-seen photos and lyrics "From The Vault". When Taylor Swift announced that 1989 (Taylor’s Version) was finally seeing release, she mentioned that, of all the albums she’s faithfully re-recorded in her quest to retake her master tapes, this one was special. “The 1989 album changed my life in countless ways,” she wrote on Instagram.Listen to 1989 (Taylor's Version) [Deluxe] by Taylor Swift on Apple Music. 2023. 22 Songs. Duration: 1 hour, 21 minutes. Download or stream 1989 (TAYLOR'S VERSION) [DELUXE] by Taylor Swift, Kendrick Lamar for free on hoopla. | hoopladigital.com Aug 28, 2014 · SWIFT,TAYLOR - 1989 + 3 Deluxe ... 5.0 out of 5 stars Reliving my childhood in preparation for 1989 (Taylor’s version) ... This is probably my favourite Taylor ... 01. Welcome To New York (Taylor's Version) Taylor Swift. 1989 (Taylor's Version) (Deluxe) 03:32. Composers: Ryan Tedder - Taylor Swift. 02. Blank Space (Taylor's …Taylor Swift claims her ninth album to reach 2 million in U.S. sales, as 1989 (Taylor’s Version) surpassed the threshold in the week ending Jan. 11. According to data tracking firm Luminate, the ...Overall, ‘1989 (Taylor’s Version)’ is excellent. The praise the original album received for its composition, songwriting and overall curation is still absolutely worthy, and will hopefully serve as a reminder of how and why Taylor Swift became one of the greatest solo artists of her generation.When Taylor Swift announced that 1989 (Taylor’s Version) was finally seeing release, she mentioned that, of all the albums she’s faithfully re-recorded in her quest to retake her master tapes, this one was special. “The 1989 album changed my life in countless ways,” she wrote on Instagram.1989 (Taylor's Version) De Taylor Swift • 2023 - 21 músicas . Ouvir Aleatório. Adicionar aos favoritos. Opções. Ir para o artista; Ir para a rádio do artista ; Facebook X # Música. Welcome To New York (Taylor's Version) ... 1989 (Taylor's Version) [Deluxe] 2023 • …Listen free to Taylor Swift – 1989 (Taylor’s Version) (Deluxe) (Welcome to New York (Taylor's Version), Blank Space (Taylor's Version) and more). 22 tracks (81:08). Discover more music, concerts, videos, and pictures with the largest catalogue online at …Aug 11, 2023 · Less than 24 hours after Taylor Swift announced the upcoming release of 1989 (Taylor’s Version), the special edition deluxe CDs of the album have sold out, according to her web store.. The ... Sep 22, 2023 · 1989 (Taylor’s Version) CD 21 Songs Including 5 previously unreleased songs from The Vault Collectible CD album in jewel case with unique front and back cover art 1 Disc album with unique collectible disc artwork A collectible lyric booklet with never-before-seen photos 10”x10” double-sided Foldable Poster Side 1 includes full size photograph of Taylor Swift Side 2 includes a print of ... There's a big difference between financial advisers and Taylor Swift. It's not what you think it is. By clicking "TRY IT", I agree to receive newsletters and promotions from Money ...Sep 22, 2023 · 1989 (Taylor’s Version) CD 21 Songs Including 5 previously unreleased songs from The Vault Collectible CD album in jewel case with unique front and back cover art 1 Disc album with unique collectible disc artwork A collectible lyric booklet with never-before-seen photos 10”x10” double-sided Foldable Poster Side 1 includes full size photograph of Taylor Swift Side 2 includes a print of ... Analyzed: Taylor Swift / 1989 (Taylor's Version) (Deluxe) DR Peak RMS Duration Track DR5 -0.01 dB -6.81 dB 3:33 01-Welcome To New York (Taylor's Version) Taylor Swift. 1989 (Taylor's Version) (Deluxe) 03:32. Compositeurs : Ryan Tedder - Taylor Swift. 02. Blank Space (Taylor's Version) Taylor Swift. 1989 (Taylor's …In 2008 she is still considered a young country artist from Nashville, six years later Taylor Swift makes pure pop music. The 1989 album - named after…When Taylor Swift announced that 1989 (Taylor’s Version) was finally seeing release, she mentioned that, of all the albums she’s faithfully re-recorded in her quest to retake her master tapes, this one was special. “The 1989 album changed my life in countless ways,” she wrote on Instagram. “To be perfectly honest, this is my most ...Is It Over Now? (Taylor's Version) (From The Vault) Bad Blood (Taylor's Version) [feat. Kendrick Lamar] Download or stream 1989 (TAYLOR'S VERSION) [DELUXE] by Taylor … Listen to 1989 (Deluxe) on Spotify. Taylor Swift · Album · 2014 · 19 songs. 1989 is the album that fully, forever made Taylor Swift a pop artist, leaving the last crossover vestiges of her country career in the Nashville dirt as she embraced her new life in New York—retro synths and all.Remade nearly nine years later,—the fourth in Swift's extraordinary reclamation of her music after bitterly losing her masters in a …The 1914 Sears Deluxe motorcycle was offered for sale in the Sears and Roebuck catalog. See pictures and learn more about the Sears Deluxe. Advertisement The 1914 Sears Deluxe moto...Before 2023 was over, she also moved forward in her re-release series with 1989 [Taylor's Version], a revision of her pop-minded fifth album from 2014. As with many of the re-releases, the set included multiple previously unreleased songs from the same time, as well as re-recorded versions of some of Swift's biggest hits.Preview. Taylor Swift's '80s-inspired fifth studio effort is her first “official pop album”, with heavyweights like Max Martin, Shellback, Ryan Tedder and Jack Antonoff helping construct a sleeker, glitzier sound. “Shake It Off” mimics “Hey Ya”, Outkast's own pledge of allegiance to populism, and echoes of Madonna, Cyndi Lauper and ...1989 is the album that fully, forever made Taylor Swift a pop artist, leaving the last crossover vestiges of her country career in the Nashville dirt as she embraced her new life in New York—retro synths and all.Remade nearly nine years later,—the fourth in Swift's extraordinary reclamation of her music after bitterly losing her masters in a …30 Oct 2023 ... Unboxing: Taylor Swift 1989 (Taylor's Version) (Japan Exclusive Cardboard Sleeve Mini LP Edition) · Comments7.Artist : Taylor Swift Album : 1989 (Deluxe) Year : October 26, 2014 Genre: Pop Quality : Flac Hi-Res 24bits/44.1kHz Label: Released by Big Machine Records, LLC Source : Qobuz Size : 783mb Tracklist: 01 Welcome To New York 02 Blank Space 03 Style 04 Out Of The Woods 05 All You Had To Do Was Stay 06 Shake It Off 07 I Wish You Would 08 Bad …5 Nov 2023 ... Taylor Swift 1989 Taylor's Version (Japan) Deluxe Limited Edition Unboxing Hi everyone!how are you doing?even though is november is still ...In October 2012, Taylor Swift released Red, her fourth studio album. Nominated for numerous awards, the seven-times platinum-certified album was something of a transitional moment ...When Taylor Swift announced that 1989 (Taylor’s Version) was finally seeing release, she mentioned that, of all the albums she’s faithfully re-recorded in her quest to retake her master tapes, this one was special. “The 1989 album changed my life in countless ways,” she wrote on Instagram. Swift kicked off the 1989 era with a livestream and the release of lead single “Shake It Off,” which became one of her biggest hits and earned Swift her first diamond single by March 2020 ... Product description. Taylor Swift to release "1989" Taylor's version with five unreleased tracks. Japanese deluxe edition features 7inch cardboard sleeve packaging with a guitar pick and a folded poster featuring the artist and autograph (printed). Japanese original release. Taylor Swift - 1989 (Taylor’s Version) Lyrics and Tracklist | Genius. 1989 (Taylor’s Version) Released October 27, 2023. 1989 (Taylor’s Version) Tracklist. …Swift went on Instagram to encourage her fans to vote and to endorse Democratic candidates Phil Bredesen and Jim Cooper in Tennessee. Musician Taylor Swift has typically been priva...Ouça e veja as letras das músicas do álbum 1989 (Deluxe) de Taylor Swift no maior site de música do Brasil.Aug 11, 2023 · Less than 24 hours after Taylor Swift announced the upcoming release of 1989 (Taylor’s Version), the special edition deluxe CDs of the album have sold out, according to her web store.. The ... Listen to 1989 (Taylor's Version) [Deluxe] by Taylor Swift on Apple Music. 2023. 22 Songs. Duration: 1 hour, 21 minutes.Oct 27, 2023 · 1989 (Taylor's Version) ( 2 × LP, Album, Special Edition, Tangerine, MPO Pressing) Republic Records. 0245554218. Worldwide. 2023. Recently Edited. 1989 (Taylor's Version) ( CD, Album, Special Edition, Crystal Skies Blue Edition) Republic Records. 0245597656. Écoute 1989 (Taylor's Version) (Deluxe) par Taylor Swift sur Deezer. Welcome To New York (Taylor's Version), Blank Space (Taylor's Version), Style (Taylor's Version)... Oct 27, 2023 · Shop Taylor Swift - 1989 (Taylor's Version) Tangerine Edition (Target Exclusive, Vinyl) at Target. Choose from Same Day Delivery, Drive Up or Order Pickup. Free standard shipping with $35 orders. Save 5% every day with RedCard. Go to Taylor Swift - 1989 (Taylor's Version) [Deluxe]. By using this service, you agree to the use of cookies. Click here to manage your permissions.Listen to 1989 (Deluxe Edition) by Taylor Swift on Apple Music. 2014. 19 Songs. Duration: 1 hour, 8 minutes. ... Red (Taylor’s Version) [+ A Message From Taylor] 2021. Speak Now (Taylor's Version) 2023. Featured On . 2010s Hits Essentials. Apple Music 2010s. All I Want for Christmas Is Pop. 3:00. Taylor Swift - 1989 (Taylor's Version) Aquamarine Green Edition / cd unboxing /. 2:55. Taylor Swift - 1989 (Taylor's Version) Crystal Skies Blue Edition / cd unboxing /. 2:51. Explore the tracklist, credits, statistics, and more for 1989 (Taylor's Version) by Taylor Swift. Compare versions and buy on Discogs. Another re-recording, "This Love (Taylor's Version)" (originally off 1989), arrived in May 2022 and was included in the soundtrack to the coming-of-age drama The Summer I Turned Pretty. At the same time she was revisiting her past work, Swift opened up another chapter in her career with the October 2022 release of Midnights, an album co ...23 Nov 2023 ... Presentation Of 1989 Of Taylor Swift Including 19 Tracks. The CD 1989 Contains : • CD : 1. Welcome To New York 2. Blank Space 3. Style 4.01. Welcome To New York (Taylor's Version) Taylor Swift. 1989 (Taylor's Version) (Deluxe) 03:32. Composers: Ryan Tedder - Taylor Swift. 02. Blank Space (Taylor's …Nov 9, 2023 · Music Reviews: 1989 (Taylor's Version) [Webstore Deluxe] by Taylor Swift released in 2023. Collection 1989 (Taylor's Version) is empty. Back to homepage. Shop the Official Taylor Swift Online store for exclusive Taylor Swift products including shirts, hoodies, music, accessories, phone cases, tour merchandise and old Taylor merch!Taylor Swift released her latest re-recording, '1989 (Taylor's Version),' including five From the Vault tracks. See what the pop star said about the new album.Preview. Taylor Swift's '80s-inspired fifth studio effort is her first “official pop album”, with heavyweights like Max Martin, Shellback, Ryan Tedder and Jack Antonoff helping construct a sleeker, glitzier sound. “Shake It Off” mimics “Hey Ya”, Outkast's own pledge of allegiance to populism, and echoes of Madonna, Cyndi Lauper and ...Taylor Swift released her latest re-recording, '1989 (Taylor's Version),' including five From the Vault tracks. See what the pop star said about the new album.1989 (Taylor's Version) ( 2 × LP, Album, Special Edition, Tangerine, MPO Pressing) Republic Records. 0245554218. Worldwide. 2023. Recently Edited. 1989 (Taylor's Version) ( CD, Album, Special Edition, Crystal Skies …Listen to 1989 (Taylor's Version) [Deluxe] by Taylor Swift on Apple Music. 2023. 22 Songs. Duration: 1 hour, 21 minutes.Listen free to Taylor Swift – 1989 (Taylor's Version) (Deluxe) (Welcome to New York (Taylor's Version), Blank Space (Taylor's Version) and more). 22 tracks (). Discover more music, concerts, videos, and pictures with the largest catalogue online at …Oct 27, 2023 · 1989 (Taylor's Version) [Deluxe] is released a few hours after the standard album 1989 (Taylor's Version) now including the Bad Blood (ft. Kendrick Lamar). Here's the entire tracklist of this album 1. Taylor Swift - 1989 (Taylor’s Version) Lyrics and Tracklist | Genius. 1989 (Taylor’s Version) Released October 27, 2023. 1989 (Taylor’s Version) Tracklist. …Overall, ‘1989 (Taylor’s Version)’ is excellent. The praise the original album received for its composition, songwriting and overall curation is still absolutely worthy, and will hopefully serve as a reminder of how and why Taylor Swift became one of the greatest solo artists of her generation.Taylor Swift. 1989 (Taylor's Version) (Deluxe) 03:32. Compositeurs : Ryan Tedder - Taylor Swift. 02. Blank Space (Taylor's Version) Taylor Swift. 1989 (Taylor's … Download or stream 1989 (TAYLOR'S VERSION) [DELUXE] by Taylor Swift, Kendrick Lamar for free on hoopla. | hoopladigital.com When Taylor Swift announced that 1989 (Taylor’s Version) was finally seeing release, she mentioned that, of all the albums she’s faithfully re-recorded in her quest to retake her master tapes, this one was special. “The 1989 album changed my life in countless ways,” she wrote on Instagram.Download Taylor Swift - 1989 (Taylor's Version) (Deluxe) (2023) [24Bit-48kHz] FLAC [PMEDIA] torrent for free, Downloads via Magnet Link or FREE Movies online to Watch ... Download or stream 1989 (TAYLOR'S VERSION) [DELUXE] by Taylor Swift, Kendrick Lamar for free on hoopla. | hoopladigital.com 1989 (Taylor's Version) De Taylor Swift • 2023 - 21 canciones . Escuchar Aleatorio. Añadir a favoritos. Opciones. Ir al artista; Ir a la radio del artista ; Facebook X # Canción. Welcome To New York (Taylor's Version) ... 1989 (Taylor's Version) [Deluxe] 2023 • Álbum 1989 ...Escucha y mira las letras de las canciones del álbum 1989 (Deluxe) de Taylor Swift. menu. LETRAS.COM - Letras de canciones. buscar. Canciones; Artistas; Géneros musicales; Playlists; Spotify; Diccionario; Blog; ... 2023 • Álbum 1989 (Taylor's Version) 2023 • Álbum The Cruelest Summer 2023 • Sencillo/EP Speak Now (Taylor's Version ...Listen to 1989 (Taylor's Version) [Deluxe], a playlist curated by Taylor Swift on desktop and mobile. SoundCloud ... 1989 (Taylor's Version) [Deluxe] by Taylor Swift published on 2023-10-27T13:42:42Z. Genre Pop Contains tracks. Welcome To New York (Taylor's Version) by Taylor Swift published on 2023-10-27T04:14:37Z. Blank Space ...1989 (Taylor's Version) [Deluxe] - Album by Taylor Swift - Apple Music. Taylor Swift. POP · 2023. When Taylor Swift announced that 1989 (Taylor’s Version) …Taylor Swift's 1989 (Taylor's Version)[2 LP] has been repackaged and reborn, offering fans a fresh take on the music industry's beloved album. The 2 LP on …27 Oct 2023 ... دانلود نسخه دلوکس آلبوم 1989 (Taylor's Version) از تیلور سویفت (Taylor Swift) با کیفیت فلک FLAC 16 Bit البوم جدید 2023 از تیلور سویفت.When Taylor Swift announced that 1989 (Taylor’s Version) was finally seeing release, she mentioned that, of all the albums she’s faithfully re-recorded in her quest to retake her master tapes, this one was special. “The 1989 album changed my life in countless ways,” she wrote on Instagram.Shop Taylor Swift - 1989 (Taylor's Version) Tangerine Edition (Target Exclusive, Vinyl) at Target. Choose from Same Day Delivery, Drive Up or Order Pickup. Free standard shipping with $35 orders. Save 5% every day with RedCard.Jennifer Lopez - This Is Me…Now (CD) (Deluxe Version) Warner Music Group New at ¬. 1. $17.99. When purchased online. of 8. Page 1 Page 2 Page 3 Page 4 Page 5 Page 6 Page 7 Page 8. Shop Target for taylor swift 1989 delux you will love at great low prices. Choose from Same Day Delivery, Drive Up or Order Pickup plus free shipping on orders $35+.Jul 8, 2019 · Artist : Taylor Swift Album : 1989 (Deluxe) Year : October 26, 2014 Genre: Pop Quality : Flac Hi-Res 24bits/44.1kHz Label: Released by Big Machine Records, LLC Source : Qobuz Size : 783mb Tracklist: 01 Welcome To New York 02 Blank Space 03 Style 04 Out Of The Woods 05 All You Had To Do Was Stay 06 Shake It Off 07 I Wish You Would 08 Bad Blood 09 Wildest Dreams 10 How You Get The Girl 11 This ... Taylor Swift has released '1989 (Taylor's Version)' online. Here's where to buy Taylor Swift exclusive vinyl and deluxe editions of '1989 (TV).'Aug 11, 2023 · Less than 24 hours after Taylor Swift announced the upcoming release of 1989 (Taylor’s Version), the special edition deluxe CDs of the album have sold out, according to her web store.. The ... Can we be honest for a second? Going to concerts can be a massive pain. You have to hope you get tickets (we’re looking at you, Taylor Swift), pay an arm and a leg, and then cram y...When Taylor Swift announced that 1989 (Taylor’s Version) was finally seeing release, she mentioned that, of all the albums she’s faithfully re-recorded in her quest to retake her master tapes, this one was special. “The 1989 album changed my life in countless ways,” she wrote on Instagram.But now, in a post-rockist world, 1989 (Taylor’s Version) shines a lot brighter. Standing on the beach, in the clear and out of the woods, so does Swift. In this article:Album, Deluxe Edition, Special Edition. 1989 (Taylor's Version) Taylor Swift. Released. 2023 — Europe. CD — Album, Deluxe Edition, Special Edition. Reputation. ... Taylor Swift - 1989 (Taylor's Version) - B10 - How You Get The Girl - Live Vinyl Record Tangerine. 4:07;When Taylor Swift announced that 1989 (Taylor’s Version) was finally seeing release, she mentioned that, of all the albums she’s faithfully re-recorded in her quest to retake her master tapes, this one was special. “The 1989 album changed my life in countless ways,” she wrote on Instagram.When Taylor Swift announced that 1989 (Taylor’s Version) was finally seeing release, she mentioned that, of all the albums she’s faithfully re-recorded in her quest to retake her master tapes, this one was special. “The 1989 album changed my life in countless ways,” she wrote on Instagram. “To be perfectly honest, this is my most ...1989 (Taylor's Version) — четвертий перезаписаний альбом американської співачки і авторки пісень Тейлор Свіфт, вийшов 27 жовтня 2023 року на Republic Records.Це перезапис п'ятого студійного альбому Свіфт, 1989 (2014), і …. Taylor Swift announced that 1989 (Taylor's Version) will be her next Taylor Swift. 1989 (Taylor's Version) (Deluxe) 03:32. Composi 31 Oct 2023 ... all rights reserved to the artist(s) and label(s). no copyright intended.] - #TaylorSwift #1989taylorsversion. Oct 27, 2023 · Taylor Swift had some sweet words for Kendrick Lama Analyzed: Taylor Swift / 1989 (Taylor's Version) (Deluxe) DR Peak RMS Duration Track DR5 -0.01 dB -6.81 dB 3:33 01-Welcome To New York (Taylor's Version) Artist : Taylor Swift Album : 1989 (Deluxe) Year : O...

Continue Reading